<?xml version="1.0" standalone="no"?>
<!DOCTYPE svg PUBLIC "-//W3C//DTD SVG 1.1//EN" "http://www.w3.org/Graphics/SVG/1.1/DTD/svg11.dtd" >
<!--
2013-9-30: Created.
-->
<svg>
<metadata>
Created by iconfont
</metadata>
<defs>

<font id="iconfont" horiz-adv-x="1024" >
  <font-face
    font-family="iconfont"
    font-weight="500"
    font-stretch="normal"
    units-per-em="1024"
    ascent="896"
    descent="-128"
  />
    <missing-glyph />
    
    <glyph glyph-name="x" unicode="x" horiz-adv-x="1001"
d="M281 543q-27 -1 -53 -1h-83q-18 0 -36.5 -6t-32.5 -18.5t-23 -32t-9 -45.5v-76h912v41q0 16 -0.5 30t-0.5 18q0 13 -5 29t-17 29.5t-31.5 22.5t-49.5 9h-133v-97h-438v97zM955 310v-52q0 -23 0.5 -52t0.5 -58t-10.5 -47.5t-26 -30t-33 -16t-31.5 -4.5q-14 -1 -29.5 -0.5
t-29.5 0.5h-32l-45 128h-439l-44 -128h-29h-34q-20 0 -45 1q-25 0 -41 9.5t-25.5 23t-13.5 29.5t-4 30v167h911zM163 247q-12 0 -21 -8.5t-9 -21.5t9 -21.5t21 -8.5q13 0 22 8.5t9 21.5t-9 21.5t-22 8.5zM316 123q-8 -26 -14 -48q-5 -19 -10.5 -37t-7.5 -25t-3 -15t1 -14.5
t9.5 -10.5t21.5 -4h37h67h81h80h64h36q23 0 34 12t2 38q-5 13 -9.5 30.5t-9.5 34.5q-5 19 -11 39h-368zM336 498v228q0 11 2.5 23t10 21.5t20.5 15.5t34 6h188q31 0 51.5 -14.5t20.5 -52.5v-227h-327z" />
    

    
    <glyph glyph-name="wxbbaobiao" unicode="&#58904;" d="M941.590594-0.266827 125.566322-0.266827 125.566322 815.822936c0 12.017708-9.710153 21.665439-21.664416 21.665439-11.997242 0-21.665439-9.648754-21.665439-21.665439l0-837.751109c0-11.932774 9.66922-21.666462 21.665439-21.666462l837.688687 0c11.974729 0 21.666462 9.733689 21.666462 21.666462C963.257056-9.912511 953.566346-0.266827 941.590594-0.266827M204.97079 191.16818c6.368034 0 12.695137 2.792603 16.989953 8.207939L387.391493 407.821545l204.846458-204.889437c4.487198-4.486174 10.749832-6.941086 16.926508-6.347568 6.262634 0.50756 12.017708 3.640923 15.741519 8.632611l258.204713 344.868515c7.193843 9.56382 5.248537 23.104207-4.358261 30.29805-9.562796 7.193843-23.146163 5.246491-30.336936-4.315282L605.270778 251.255697 400.889925 455.638597c-4.40124 4.315282-10.156314 6.770194-16.587793 6.262634-6.1777-0.338714-11.932774-3.302209-15.741519-8.125051L188.024839 226.290095c-7.448646-9.309016-5.882987-23.019273 3.469008-30.464849C195.534883 192.692906 200.252325 191.16818 204.97079 191.16818"  horiz-adv-x="1024" />

    
    <glyph glyph-name="wxbzhanghu" unicode="&#58910;" d="M917.901055 748.754425 128.015094 748.754425c-32.090882 0-58.18826-26.075889-58.18826-58.125839l0-567.459103c0-32.04688 26.097378-58.125839 58.18826-58.125839l789.885961 0c32.132838 0 58.168818 26.076912 58.168818 58.125839L976.069873 690.628586C976.068849 722.678536 950.033893 748.754425 917.901055 748.754425M932.999938 123.169483c0-8.243755-6.771217-15.056927-15.099906-15.056927L128.015094 108.112556c-8.3072 0-15.120372 6.813173-15.120372 15.056927L112.894721 690.628586c0 8.243755 6.813173 15.057951 15.120372 15.057951l789.885961 0c8.328689 0 15.099906-6.814196 15.099906-15.057951L933.000961 123.169483zM432.709631 384.945535c31.585369 24.14184 52.405557 61.827137 52.405557 104.474446 0 72.677253-59.092863 131.813095-131.729184 131.813095-72.636321 0-131.729184-59.134819-131.729184-131.813095 0-42.647309 20.797675-80.332606 52.405557-104.474446-70.406536-30.703279-119.846552-100.857059-119.846552-182.535313 0-11.861142 9.610892-21.534456 21.534456-21.534456 11.881608 0 21.534456 9.673313 21.534456 21.534456 0 84.706217 67.818595 153.515373 151.937434 155.701155 1.429559 0 2.734274-0.419556 4.163833-0.419556 1.428535 0 2.734274 0.419556 4.119831 0.419556 84.201727-2.187829 152.000879-70.994937 152.000879-155.701155 0-11.861142 9.631358-21.534456 21.534456-21.534456s21.534456 9.673313 21.534456 21.534456C552.577672 284.088476 503.116167 354.242256 432.709631 384.945535M264.726755 489.418958c0 48.957015 39.745213 88.745207 88.661296 88.745207 48.872081 0 88.660272-39.788192 88.660272-88.745207 0-47.441499-37.600363-85.967954-84.538395-88.23867-1.385557 0.083911-2.691295 0.420579-4.119831 0.420579-1.429559 0-2.735297-0.336668-4.163833-0.420579C302.285163 403.452028 264.726755 441.977459 264.726755 489.418958M846.863139 581.86444 558.886355 581.86444c-11.945053 0-21.534456-9.673313-21.534456-21.533432 0-11.861142 9.589402-21.534456 21.534456-21.534456l287.976784 0c11.904121 0 21.534456 9.673313 21.534456 21.534456C868.397594 572.191126 858.76726 581.86444 846.863139 581.86444M846.863139 449.042365 558.886355 449.042365c-11.945053 0-21.534456-9.589402-21.534456-21.533432 0-11.861142 9.589402-21.534456 21.534456-21.534456l287.976784 0c11.904121 0 21.534456 9.673313 21.534456 21.534456C868.397594 439.452963 858.76726 449.042365 846.863139 449.042365M846.863139 316.221314 601.954243 316.221314c-11.94403 0-21.533432-9.589402-21.533432-21.533432 0-11.861142 9.589402-21.534456 21.533432-21.534456l244.908896 0c11.904121 0 21.534456 9.673313 21.534456 21.534456C868.397594 306.630888 858.76726 316.221314 846.863139 316.221314"  horiz-adv-x="1024" />

    
    <glyph glyph-name="wxbzhuye" unicode="&#58911;" d="M965.963701 409.25315 526.971481 848.160435 89.258395 410.467815c-8.363482-8.383948-8.363482-21.966291 0-30.349215 8.42488-8.385994 21.98778-8.385994 30.349215 0l76.296687 76.252685L195.904297 18.678664c0-30.099529 24.460088-54.580083 54.559617-54.580083l559.219441 0c30.099529 0 54.580083 24.480554 54.580083 54.580083L864.263437 450.208934l71.351048-71.307046c4.15053-4.234441 9.641591-6.246261 15.174608-6.246261 5.449106 0 10.982122 2.012843 15.175631 6.246261C974.347648 387.243881 974.347648 400.868179 965.963701 409.25315M821.337789 18.678664c0-6.415107-5.240351-11.654434-11.655458-11.654434L250.463913 7.02423c-6.415107 0-11.632945 5.239328-11.632945 11.654434L238.830969 499.296933l288.140513 288.204981L821.337789 493.134583 821.337789 18.678664 821.337789 18.678664zM406.408615 440.166207c0-66.821895 54.328349-121.193223 121.193223-121.193223 66.862827 0 121.1922 54.371328 121.1922 121.193223 0 66.819848-54.329373 121.149221-121.1922 121.149221C460.736964 561.314405 406.408615 506.986055 406.408615 440.166207M527.600815 518.38978c43.134403 0 78.263481-35.130102 78.263481-78.223572 0-43.179428-35.129078-78.265528-78.263481-78.265528-43.136449 0-78.266551 35.087123-78.266551 78.265528C449.334263 483.259678 484.464365 518.38978 527.600815 518.38978"  horiz-adv-x="1024" />

    
    <glyph glyph-name="erweima" unicode="&#58946;" d="M384 832l-249.6 0c-51.2 0-89.6-41.6-89.6-89.6l0-227.2c0-51.2 41.6-89.6 89.6-89.6l249.6 0c51.2 0 89.6 41.6 89.6 89.6l0 227.2C473.6 790.4 435.2 832 384 832zM428.8 515.2c0-25.6-19.2-44.8-44.8-44.8l-249.6 0c-25.6 0-44.8 19.2-44.8 44.8l0 227.2c0 25.6 19.2 44.8 44.8 44.8l249.6 0c25.6 0 44.8-19.2 44.8-44.8L428.8 515.2zM192 704l134.4 0 0-134.4-134.4 0 0 134.4ZM377.6 352l-243.2 0c-48 0-86.4-38.4-86.4-89.6l0-220.8c0-48 38.4-89.6 86.4-89.6l243.2 0c48 0 86.4 38.4 86.4 89.6l0 220.8C467.2 313.6 425.6 352 377.6 352zM422.4 44.8c0-25.6-19.2-44.8-44.8-44.8l-243.2 0c-25.6 0-44.8 19.2-44.8 44.8l0 220.8c0 25.6 19.2 44.8 44.8 44.8l243.2 0c25.6 0 44.8-19.2 44.8-44.8L422.4 44.8zM192 227.2l131.2 0 0-131.2-131.2 0 0 131.2ZM633.6 425.6l249.6 0c51.2 0 89.6 41.6 89.6 89.6l0 227.2c0 51.2-41.6 89.6-89.6 89.6l-249.6 0c-51.2 0-89.6-41.6-89.6-89.6l0-227.2C544 464 585.6 425.6 633.6 425.6zM588.8 742.4c0 25.6 19.2 44.8 44.8 44.8l249.6 0c25.6 0 44.8-19.2 44.8-44.8l0-227.2c0-25.6-19.2-44.8-44.8-44.8l-249.6 0c-25.6 0-44.8 19.2-44.8 44.8L588.8 742.4zM700.8 704l134.4 0 0-134.4-134.4 0 0 134.4ZM572.8 179.2l137.6 0c12.8 0 22.4 9.6 22.4 22.4l0 137.6c0 12.8-9.6 22.4-22.4 22.4l-137.6 0c-12.8 0-22.4-9.6-22.4-22.4l0-137.6C550.4 188.8 560 179.2 572.8 179.2zM886.4 332.8l0-38.4c0-12.8 12.8-25.6 25.6-25.6l38.4 0c12.8 0 25.6 12.8 25.6 25.6l0 38.4c0 12.8-12.8 25.6-25.6 25.6l-38.4 0C899.2 358.4 886.4 348.8 886.4 332.8zM582.4-48l48 0c12.8 0 22.4 9.6 22.4 22.4l0 48c0 12.8-9.6 22.4-22.4 22.4l-48 0c-12.8 0-22.4-9.6-22.4-22.4l0-48C560-38.4 569.6-48 582.4-48zM944 192l-99.2 0c-16 0-28.8-12.8-28.8-28.8l0-44.8-48 0c-19.2 0-32-12.8-32-32l0-99.2c0-16 12.8-28.8 28.8-28.8l179.2-3.2c16 0 28.8 12.8 28.8 28.8l0 179.2C972.8 179.2 960 192 944 192z"  horiz-adv-x="1024" />

    
    <glyph glyph-name="lajixiang" unicode="&#58949;" d="M944 704l-188.8 0 0 44.8c0 54.4-44.8 99.2-99.2 99.2l-294.4 0c-54.4 0-99.2-44.8-99.2-99.2l0-44.8-179.2 0c-12.8 0-25.6-9.6-25.6-25.6 0-12.8 9.6-25.6 25.6-25.6l60.8 0 0 0 0-633.6c0-54.4 44.8-99.2 99.2-99.2l550.4 0c54.4 0 99.2 44.8 99.2 99.2l0 630.4 0 3.2 51.2 0c12.8 0 25.6 9.6 25.6 25.6C966.4 691.2 960 704 944 704zM316.8 748.8c0 25.6 22.4 48 48 48l294.4 0c25.6 0 48-22.4 48-48l0-44.8-390.4 0L316.8 748.8zM841.6 28.8c0-28.8-16-57.6-41.6-57.6l-550.4 0c-25.6 0-54.4 19.2-54.4 44.8l3.2 636.8 643.2 0 0 0L841.6 28.8zM368 515.2c-16 0-25.6-9.6-25.6-25.6l0-342.4c0-16 12.8-25.6 25.6-25.6 12.8 0 25.6 9.6 25.6 25.6l0 342.4C390.4 502.4 384 515.2 368 515.2zM528 515.2c-16 0-25.6-9.6-25.6-25.6l0-342.4c0-16 12.8-25.6 25.6-25.6 12.8 0 25.6 9.6 25.6 25.6l0 342.4C550.4 502.4 544 515.2 528 515.2zM688 515.2c-16 0-25.6-9.6-25.6-25.6l0-342.4c0-16 12.8-25.6 25.6-25.6 12.8 0 25.6 9.6 25.6 25.6l0 342.4C710.4 502.4 704 515.2 688 515.2z"  horiz-adv-x="1024" />

    
    <glyph glyph-name="naozhong" unicode="&#58952;" d="M931.2 377.6c0 233.6-188.8 419.2-419.2 419.2-233.6 0-419.2-188.8-419.2-419.2 0-137.6 67.2-259.2 169.6-336l-57.6-51.2c-9.6-9.6-12.8-25.6-3.2-35.2 9.6-9.6 25.6-12.8 35.2-3.2l70.4 57.6c60.8-35.2 131.2-54.4 208-54.4 80 0 153.6 22.4 214.4 60.8 0 0 0 0 3.2-3.2l73.6-60.8c9.6-9.6 25.6-6.4 35.2 3.2 9.6 9.6 6.4 25.6-3.2 35.2l-64 54.4C867.2 121.6 931.2 243.2 931.2 377.6zM512 6.4c-204.8 0-371.2 166.4-371.2 371.2s166.4 371.2 371.2 371.2 371.2-166.4 371.2-371.2S716.8 6.4 512 6.4zM208 800c-9.6 9.6-25.6 9.6-35.2 0l-118.4-118.4c-9.6-9.6-9.6-25.6 0-35.2 9.6-9.6 25.6-9.6 35.2 0l118.4 118.4C217.6 774.4 217.6 790.4 208 800zM969.6 684.8l-118.4 115.2c-9.6 9.6-25.6 9.6-35.2 0-9.6-9.6-9.6-25.6 0-35.2l118.4-115.2c9.6-9.6 25.6-9.6 35.2 0C979.2 659.2 979.2 675.2 969.6 684.8zM707.2 595.2l-144-128c0 0 0-3.2-3.2-3.2-12.8 3.2-22.4 6.4-35.2 6.4-12.8 0-22.4-3.2-32-6.4 0 3.2-3.2 3.2-3.2 6.4l-92.8 83.2c-9.6 9.6-25.6 9.6-35.2-3.2-9.6-9.6-9.6-25.6 3.2-35.2l89.6-80c-16-19.2-28.8-41.6-28.8-70.4 0-54.4 44.8-102.4 102.4-102.4 54.4 0 102.4 44.8 102.4 102.4 0 25.6-9.6 48-25.6 67.2l140.8 124.8c9.6 9.6 9.6 25.6 3.2 35.2C732.8 601.6 716.8 601.6 707.2 595.2zM524.8 313.6c-28.8 0-51.2 22.4-51.2 51.2 0 28.8 22.4 51.2 51.2 51.2 28.8 0 51.2-22.4 51.2-51.2C576 339.2 553.6 313.6 524.8 313.6z"  horiz-adv-x="1024" />

    
    <glyph glyph-name="shangfan" unicode="&#58954;" d="M873.6 476.8l-355.2 361.6c-9.6 9.6-22.4 9.6-32 0l-355.2-368c-9.6-9.6-9.6-22.4 0-32 9.6-9.6 22.4-9.6 32 0l316.8 329.6 0-828.8c0-12.8 9.6-22.4 22.4-22.4s22.4 9.6 22.4 22.4l0 822.4 310.4-316.8c9.6-9.6 22.4-9.6 32 0C883.2 454.4 883.2 470.4 873.6 476.8z"  horiz-adv-x="1024" />

    
    <glyph glyph-name="shezhi" unicode="&#58955;" d="M512 198.4c102.4 0 182.4 83.2 182.4 185.6 0 102.4-83.2 185.6-182.4 185.6-102.4 0-182.4-83.2-182.4-185.6C329.6 281.6 412.8 198.4 512 198.4L512 198.4zM512 249.6c-73.6 0-134.4 60.8-134.4 134.4 0 73.6 60.8 134.4 134.4 134.4 73.6 0 134.4-60.8 134.4-134.4C646.4 310.4 585.6 249.6 512 249.6L512 249.6zM249.015232 52.821408c35.2-28.8 73.6-51.2 112-67.2 41.6 38.4 96 60.8 150.4 60.8 57.6 0 108.8-22.4 150.4-60.8 41.6 16 80 38.4 112 67.2-12.8 54.4-3.2 112 22.4 163.2 28.8 48 73.6 86.4 128 102.4 3.2 22.4 6.4 44.8 6.4 67.2 0 22.4-3.2 44.8-6.4 67.2-54.4 16-99.2 54.4-128 102.4-28.8 48-35.2 108.8-22.4 163.2-35.2 28.8-73.6 51.2-112 67.2-41.6-38.4-92.8-60.8-150.4-60.8-54.4 0-108.8 22.4-150.4 60.8-41.6-16-80-38.4-112-67.2 12.8-54.4 3.2-112-22.4-163.2-28.8-48-73.6-86.4-128-102.4-3.2-22.4-6.4-44.8-6.4-67.2 0-22.4 3.2-44.8 6.4-67.2 54.4-16 99.2-54.4 128-102.4C252.215232 164.821408 261.815232 107.221408 249.015232 52.821408M361.015232-62.378592c-54.4 19.2-105.6 48-150.4 89.6-6.4 6.4-9.6 16-6.4 22.4 16 48 9.6 99.2-16 140.8-25.6 44.8-64 73.6-112 83.2-9.6 3.2-16 9.6-16 19.2-6.4 28.8-9.6 60.8-9.6 89.6 0 28.8 3.2 57.6 9.6 89.6 3.2 9.6 9.6 16 16 19.2 48 12.8 89.6 41.6 112 83.2 25.6 44.8 28.8 92.8 16 140.8-3.2 9.6 0 19.2 6.4 22.4 44.8 38.4 96 67.2 150.4 89.6 9.6 3.2 16 0 22.4-6.4 35.2-35.2 80-57.6 128-57.6 48 0 96 19.2 128 57.6 6.4 6.4 16 9.6 22.4 6.4 54.4-19.2 105.6-48 150.4-89.6 6.4-6.4 9.6-16 6.4-22.4-16-48-9.6-99.2 16-140.8 25.6-44.8 64-73.6 112-83.2 9.6-3.2 16-9.6 16-19.2 6.4-28.8 9.6-60.8 9.6-89.6 0-28.8-3.2-57.6-9.6-89.6-3.2-9.6-9.6-16-16-19.2-48-12.8-89.6-41.6-112-83.2-25.6-44.8-28.8-92.8-16-140.8 3.2-9.6 0-19.2-6.4-22.4-44.8-38.4-96-67.2-150.4-89.6-9.6-3.2-16 0-22.4 6.4-35.2 35.2-80 57.6-128 57.6-48 0-96-19.2-128-57.6-3.2-3.2-9.6-6.4-16-6.4C364.215232-62.378592 361.015232-62.378592 361.015232-62.378592z"  horiz-adv-x="1024" />

    
    <glyph glyph-name="shengyin" unicode="&#58956;" d="M784 524.8c-16 25.6-35.2 44.8-44.8 54.4-9.6 9.6-28.8 9.6-38.4-3.2-9.6-9.6-9.6-28.8 3.2-38.4 3.2-3.2 6.4-6.4 9.6-9.6 9.6-9.6 19.2-22.4 25.6-35.2 57.6-86.4 57.6-179.2-38.4-278.4-9.6-9.6-9.6-28.8 0-38.4 9.6-9.6 28.8-9.6 38.4 0C851.2 297.6 851.2 419.2 784 524.8zM896 649.6c-16 25.6-35.2 48-54.4 70.4-9.6 12.8-19.2 19.2-25.6 25.6-9.6 9.6-28.8 9.6-38.4-3.2-9.6-9.6-9.6-28.8 3.2-38.4 3.2-3.2 12.8-9.6 22.4-22.4 16-19.2 32-38.4 48-64 105.6-160 105.6-336-70.4-518.4-9.6-9.6-9.6-28.8 0-38.4 9.6-9.6 28.8-9.6 38.4 0C1014.4 265.6 1014.4 470.4 896 649.6zM483.2 809.6l-217.6-185.6-108.8 0c-57.6 0-108.8-48-108.8-108.8l0-272c0-60.8 48-108.8 108.8-108.8l96 0 230.4-182.4c54.4-41.6 105.6-16 105.6 51.2l0 755.2C588.8 828.8 534.4 854.4 483.2 809.6zM534.4 6.4c0-22.4-3.2-22.4-19.2-9.6l-236.8 185.6c-3.2 3.2-9.6 6.4-16 6.4l-105.6 0c-28.8 0-54.4 25.6-54.4 54.4l0 272c0 28.8 25.6 54.4 54.4 54.4l118.4 0c6.4 0 12.8 3.2 16 6.4l224 192c16 12.8 16 12.8 16-6.4L531.2 6.4z"  horiz-adv-x="1024" />

    
    <glyph glyph-name="suo" unicode="&#58962;" d="M860.8 448l-9.6 0c3.2 19.2 6.4 41.6 6.4 64 0 188.8-153.6 336-345.6 336s-345.6-147.2-345.6-336c0-22.4 3.2-41.6 6.4-64l-12.8 0c-54.4 0-96-41.6-96-96l0-320c0-54.4 41.6-96 96-96l700.8 0c54.4 0 96 41.6 96 96l0 320C956.8 406.4 915.2 448 860.8 448zM220.8 451.2c-3.2 19.2-6.4 38.4-6.4 60.8 0 163.2 131.2 288 294.4 288s294.4-128 294.4-288c0-22.4-3.2-44.8-6.4-64l-32 0L224 448 220.8 451.2zM908.8 32c0-25.6-22.4-48-48-48L160-16c-25.6 0-48 22.4-48 48l0 320c0 25.6 22.4 48 48 48l608 0 89.6 0c25.6 0 48-22.4 48-48L905.6 32zM512 304c-12.8 0-25.6-9.6-25.6-25.6l0-195.2c0-12.8 9.6-25.6 25.6-25.6s25.6 9.6 25.6 25.6l0 195.2C537.6 291.2 524.8 304 512 304z"  horiz-adv-x="1024" />

    
    <glyph glyph-name="wodefankui" unicode="&#58966;" d="M883.2 812.8l-742.4 0c-51.2 0-92.8-41.6-92.8-89.6l0-582.4c0-48 41.6-89.6 92.8-89.6l256 0c0 0 6.4-6.4 16-19.2 3.2-3.2 6.4-6.4 9.6-12.8 0 0 6.4-9.6 9.6-12.8 28.8-44.8 51.2-67.2 86.4-67.2 35.2 0 60.8 22.4 89.6 67.2 22.4 35.2 28.8 44.8 28.8 44.8l249.6 0c51.2 0 92.8 41.6 92.8 89.6l0 582.4C976 774.4 934.4 812.8 883.2 812.8zM931.2 140.8c0-25.6-19.2-44.8-44.8-44.8l-252.8 0c-6.4 0-9.6 0-16-3.2-9.6-6.4-19.2-12.8-28.8-28.8-3.2-6.4-22.4-35.2-22.4-35.2-19.2-32-35.2-44.8-48-44.8-12.8 0-25.6 12.8-48 44.8-3.2 3.2-6.4 12.8-9.6 12.8-3.2 6.4-6.4 9.6-9.6 12.8-19.2 25.6-32 38.4-54.4 38.4l-256 0c-25.6 0-44.8 19.2-44.8 44.8l0 582.4c0 25.6 22.4 44.8 48 44.8l742.4 0c25.6 0 48-19.2 48-44.8L934.4 140.8zM220.8 412.8a1.6 1.6 0 1 0 102.4 0 1.6 1.6 0 1 0-102.4 0ZM460.8 412.8a1.6 1.6 0 1 0 102.4 0 1.6 1.6 0 1 0-102.4 0ZM697.6 412.8a1.6 1.6 0 1 0 102.4 0 1.6 1.6 0 1 0-102.4 0Z"  horiz-adv-x="1024" />

    
    <glyph glyph-name="xiafan" unicode="&#58971;" d="M921.6 332.8c-9.6 9.6-25.6 9.6-35.2 0L544 0l0 822.4c0 12.8-9.6 22.4-25.6 22.4s-25.6-9.6-25.6-22.4L492.8 0l-342.4 339.2c-9.6 9.6-25.6 9.6-35.2 0-9.6-9.6-9.6-22.4 0-32l384-377.6c6.4-6.4 12.8-6.4 19.2-6.4 0 0 0 0 0 0 3.2 0 3.2 0 6.4 0 0 0 0 0 3.2 0 3.2 0 6.4 3.2 9.6 6.4l380.8 371.2C931.2 307.2 931.2 323.2 921.6 332.8z"  horiz-adv-x="1024" />

    
    <glyph glyph-name="xiangshangjiantou" unicode="&#58973;" d="M966.4 227.2l-435.2 432c-9.6 9.6-25.6 9.6-35.2 0l-441.6-432c-9.6-9.6-9.6-25.6 0-35.2 9.6-9.6 25.6-9.6 35.2 0l425.6 416 416-416c9.6-9.6 25.6-9.6 35.2 0S976 217.6 966.4 227.2z"  horiz-adv-x="1024" />

    
    <glyph glyph-name="xiangxiajiantou" unicode="&#58974;" d="M966.4 572.8c-9.6 9.6-25.6 9.6-35.2 0l-416-416-425.6 416c-9.6 9.6-25.6 9.6-35.2 0-9.6-9.6-9.6-25.6 0-35.2l441.6-432c9.6-9.6 25.6-9.6 35.2 0l435.2 432C976 550.4 976 563.2 966.4 572.8z"  horiz-adv-x="1024" />

    
    <glyph glyph-name="xiangyoujiantou" unicode="&#58975;" d="M761.6 406.4l-432 435.2c-9.6 9.6-25.6 9.6-35.2 0-9.6-9.6-9.6-25.6 0-35.2l416-416-416-425.6c-9.6-9.6-9.6-25.6 0-35.2s25.6-9.6 35.2 0l432 441.6C771.2 380.8 771.2 396.8 761.6 406.4z"  horiz-adv-x="1024" />

    
    <glyph glyph-name="xiangzuojiantou" unicode="&#58976;" d="M729.6-35.2l-416 425.6 416 416c9.6 9.6 9.6 25.6 0 35.2-9.6 9.6-25.6 9.6-35.2 0l-432-435.2c-9.6-9.6-9.6-25.6 0-35.2l432-441.6c9.6-9.6 25.6-9.6 35.2 0C739.2-60.8 739.2-44.8 729.6-35.2z"  horiz-adv-x="1024" />

    
    <glyph glyph-name="iconfontphone" unicode="&#58932;" d="M233.778 766.382c4.719-4.22 11.714-11.174 21.099-22.284 13.874-16.423 29.387-37.656 44.861-61.405 30.009-46.055 48.741-84.212 54.135-98.747-1.27-5.075-4.854-11.448-11.496-22.598-12.505-20.992-29.63-49.741-29.63-90.518 0-25.987 12.096-54.066 39.219-91.043 17.721-24.158 41.286-51.342 68.149-78.612 26.119-26.515 53.359-50.935 76.702-68.762 36.802-28.105 63.451-40.097 89.108-40.097 36.072 0 64.861 15.349 87.993 27.682 12.694 6.768 24.768 13.205 33.596 14.651 12.498-4.425 48.54-22.768 102.228-61.148 45.318-32.397 73.236-57.52 85.817-70.75-4.181-22.79-17.587-46.155-38.186-65.94-12.037-11.562-25.795-21.099-39.787-27.582-12.117-5.614-24.097-8.706-33.731-8.706-55.427 0-124.538 23.315-199.861 67.426-73.589 43.095-149.913 104.029-220.721 176.215-69.597 70.951-128.733 147.415-171.016 221.124-21.044 36.685-37.238 71.619-48.132 103.833-10.554 31.207-15.906 59.109-15.906 82.931 0 7.975 3.646 18.727 10.266 30.276 7.857 13.708 19.619 28.202 34.012 41.913 13.543 12.901 29.149 24.766 43.943 33.408C223.528 761.789 229.364 764.571 233.778 766.382M241.316 833.256c-52.088 0-177.097-94.596-177.097-181.205 0-253.175 435.762-715.528 719.636-715.528 78.135 0 177.102 83.939 177.102 181.222 0 33.301-203.143 181.205-250.023 181.205-48.18 0-83.343-42.634-125.009-42.634-41.671 0-209.179 167.886-209.179 214.513 0 46.645 41.666 69.288 41.666 117.256C418.413 622.733 293.399 833.256 241.316 833.256L241.316 833.256z"  horiz-adv-x="1024" />

    
    <glyph glyph-name="iconfontjixieqimo" unicode="&#58937;" d="M580.193-126.543l-136.738 0c-14.287 0-26.843 9.471-30.769 23.208l-41.943 146.79-133.479-74.152c-12.494-6.938-28.07-4.755-38.171 5.35l-96.688 96.719c-10.1 10.104-12.28 25.677-5.342 38.165l74.152 133.469-146.81 41.953c-13.737 3.926-23.208 16.481-23.208 30.769l0 136.75c0 14.288 9.473 26.845 23.211 30.77l146.795 41.932-74.142 133.466c-6.938 12.489-4.756 28.065 5.346 38.168l96.688 96.688c10.105 10.104 25.683 12.283 38.169 5.346l133.478-74.158 41.944 146.802c3.925 13.738 16.481 23.209 30.769 23.209l136.738 0c14.287 0 26.844-9.471 30.769-23.209l41.944-146.801 133.477 74.157c12.488 6.938 28.064 4.758 38.167-5.344l96.701-96.689c10.104-10.103 12.286-25.679 5.348-38.169l-74.146-133.466 146.799-41.932c13.738-3.925 23.211-16.481 23.211-30.77l0-136.75c0-14.287-9.471-26.843-23.208-30.769l-146.813-41.953 74.156-133.468c6.938-12.489 4.758-28.064-5.344-38.167l-96.701-96.719c-10.101-10.104-25.676-12.288-38.169-5.349l-133.479 74.152-41.943-146.79C607.035-117.072 594.48-126.543 580.193-126.543zM467.591-62.543l88.465 0 46.386 162.337c2.683 9.387 9.503 17.036 18.522 20.772 9.02 3.735 19.252 3.151 27.786-1.591l147.611-82.003 62.567 62.579-82.01 147.604c-4.741 8.534-5.328 18.767-1.592 27.787 3.735 9.02 11.385 15.841 20.772 18.523l162.362 46.396 0 88.474-162.349 46.374c-9.388 2.682-17.038 9.502-20.774 18.522-3.737 9.021-3.151 19.253 1.59 27.787l81.999 147.603-62.562 62.555-147.613-82.012c-8.533-4.741-18.767-5.329-27.786-1.592-9.021 3.736-15.842 11.386-18.523 20.773l-46.388 162.351-88.463 0-46.388-162.351c-2.682-9.388-9.503-17.037-18.523-20.773-9.019-3.734-19.252-3.149-27.786 1.592l-147.612 82.012-62.554-62.554 81.996-147.604c4.741-8.535 5.326-18.768 1.59-27.787-3.736-9.021-11.387-15.841-20.774-18.522l-162.344-46.373 0-88.475 162.358-46.396c9.388-2.683 17.037-9.504 20.772-18.523 3.735-9.021 3.149-19.252-1.592-27.786l-82.008-147.606 62.559-62.577 147.61 82.002c8.534 4.74 18.767 5.326 27.786 1.591 9.02-3.736 15.84-11.386 18.522-20.772L467.591-62.543zM511.829 173.477c-116.141 0-210.627 94.463-210.627 210.573 0 116.154 94.486 210.652 210.627 210.652 56.258 0 109.147-21.912 148.926-61.7 39.776-39.786 61.683-92.685 61.683-148.952 0-56.249-21.907-109.13-61.688-148.901C620.973 195.379 568.085 173.477 511.829 173.477zM511.829 530.702c-80.851 0-146.627-65.788-146.627-146.652 0-80.82 65.776-146.573 146.627-146.573 80.84 0 146.608 65.753 146.608 146.573C658.438 464.914 592.669 530.702 511.829 530.702z"  horiz-adv-x="1024" />

    
    <glyph glyph-name="gerenshimingrz" unicode="&#58963;" d="M947.432 308.744v587.256h-947.131v-895.79l548.075-0.093c44.208-75.737 126.33-128.116 220.35-128.116 140.818 0 254.974 115.639 254.974 256.457 0 64.54-37.319 141.563-76.268 180.288zM901.207 344.439c-36.464 26.845-78.512 38.992-132.481 38.992-23.944 0-47.113-3.307-69.086-9.478-46.344 23.336-96.914 39.509-150.262 47.046 88.856 29.377 152.978 113.094 152.978 211.798 0 112.406-83.157 205.374-191.304 220.78h390.156l0-509.138zM479.317 449.774c-100.917 0-183.019 82.103-183.019 183.021s82.102 183.021 183.019 183.021 183.022-82.103 183.022-183.021-82.104-183.021-183.022-183.021zM447.584 853.576c-108.147-15.407-191.303-108.375-191.303-220.78 0-98.971 64.469-182.87 153.698-212.032-161.606-23.399-297.564-126.001-367.254-267.177v699.99h404.859zM45.668 45.536c48.327 195.164 224.954 340.275 434.843 340.275 59.281 0 115.902-11.587 167.734-32.597-80.056-43.003-134.495-127.519-134.495-224.756 0-29.030 4.862-56.923 13.799-82.92l-481.882-0.002zM768.726-84.3c-116.775 0-211.778 96.486-211.778 213.26s95.003 211.776 211.778 211.776c70.691 0 133.394-34.822 171.882-88.206l-172.030-175.875-99.278 96.914-32.633-33.305 132.584-129.547 194.939 199.725c10.501-25.096 16.313-52.622 16.313-81.483-0-116.773-95.002-213.259-211.776-213.259z"  horiz-adv-x="1024" />

    
    <glyph glyph-name="maijiabz" unicode="&#58968;" d="M512 896c-2.773 0-278.002-0.744-511.525-62.806v-448.701c0.426-5.819 7.917-93.944 71.873-198.89 38.799-63.683 90.436-120.723 153.473-169.589 78.333-60.736 174.604-108.92 286.178-143.21 111.248 34.224 207.295 82.192 285.488 142.665 62.999 48.716 114.647 105.607 153.525 169.072 64.377 105.155 72.077 194.238 72.512 199.958v56.822l0 391.872c-233.516 62.062-508.741 62.806-511.524 62.806v0zM980.891 441.315v-54.971c-1.122-11.583-10.408-88.342-66.237-179.534-36.174-59.059-84.37-112.092-143.25-157.618-71.129-55.016-158.355-99.291-259.414-131.706-101.271 32.46-188.7 76.904-260.048 132.218-58.95 45.7-107.125 98.885-143.191 158.083-55.666 91.345-64.592 167.202-65.643 178.483v413.702c219.574 52.412 465.439 53.389 468.891 53.394 3.448-0.005 249.315-0.977 468.891-53.394v-358.656l0.001-0zM342.969 706.911c-17.927-73.897-37.434-129.408-83.219-191.872 0-14.193 0-51.956 0-78.895 30.398 36.691 49.512 58.389 64.443 87.874v-328.754h42.69v412.537c9.667 29.702 16.259 55.642 21.616 99.11l-45.53-0.001zM772.432 515.188v191.609h-299.044v-191.609h128.214v-64.185h-192.255v-43.264h151.9c-38.494-59.945-64.485-90.531-130.122-125.42l20.908-39.105c66.818 35.041 122.691 94.846 149.568 161.234v-209.207h41.986l-0 209.206c30.709-67.040 79.319-122.664 146.355-157.555l24.769 38.881c-58.641 27.924-95.187 64.693-130.091 121.965h151.885v43.264l-192.919-0v64.185l128.846 0.002zM515.761 557.446v106.458h214.206v-106.458h-214.206z"  horiz-adv-x="1024" />

    
    <glyph glyph-name="map" unicode="&#59042;" d="M513.577807-122.488425a24.572224 24.572224 0 0 0-20.193066 10.568544L192.002048 322.64572a24.680756 24.680756 0 0 0-0.937879 1.458012 373.881965 373.881965 0 0 0-34.076952 75.366151c-12.077751 37.311405-18.198538 76.196522-18.198537 115.589486 0 206.664086 168.133233 374.798343 374.798342 374.798343 47.94343 0 96.038396-11.579119 142.947702-34.415857 42.703185-20.788968 83.766106-51.042731 118.751244-87.488954 34.08719-35.511415 62.431408-76.862047 81.96714-119.582638 20.362007-44.524677 31.122018-90.612827 31.120994-133.280177 0-39.402179-6.12181-78.286272-18.194442-115.573104-8.337498-25.72819-19.85928-51.384709-33.324396-74.200969-0.304094-0.516038-0.627642-1.020814-0.968595-1.514327L533.770874-111.917833a24.576319 24.576319 0 0 0-20.193067-10.570592zM232.890908 349.927144l280.683828-404.718319L794.978354 351.050346c11.469563 19.570544 21.298863 41.546195 28.44763 63.607852 10.484586 32.383445 15.802646 66.175756 15.802646 100.430864 0.004096 72.181868-37.153727 153.987233-99.396739 218.828867C674.686163 801.786168 592.223463 840.710192 513.588046 840.710192c-179.564913 0-325.651847-146.086934-325.651847-325.651847 0-34.245892 5.317036-68.039228 15.804694-100.439054a324.581887 324.581887 0 0 1 29.150015-64.692147z m582.802694-12.12485h0.010239-0.010239z m-302.760842-18.642904c-96.8616 0-175.66391 78.803334-175.66391 175.664934s78.80231 175.66391 175.66391 175.663909c96.862623 0 175.66391-78.80231 175.663909-175.663909s-78.801286-175.664934-175.663909-175.664934z m0 302.182348c-69.762427 0-126.517414-56.756011-126.517415-126.517414S443.171357 368.305886 512.93276 368.305886 639.450174 425.061897 639.450174 494.824324s-56.754987 126.517414-126.517414 126.517414z"  horiz-adv-x="1024" />

    
    <glyph glyph-name="add" unicode="&#59065;" d="M895.531061 410.211464 535.640488 410.211464 535.640488 770.102037c0 13.5716-11.001648 24.573248-24.573248 24.573248s-24.573248-11.001648-24.573248-24.573248l0-359.890572L126.604444 410.211464c-13.5716 0-24.573248-11.001648-24.573248-24.573248s11.001648-24.573248 24.573248-24.573248l359.889548 0 0-359.890572c0-13.5716 11.001648-24.573248 24.573248-24.573248s24.573248 11.001648 24.573248 24.573248L535.640488 361.065993l359.890572 0c13.5716 0 24.573248 11.001648 24.573248 24.573248S909.102661 410.211464 895.531061 410.211464z"  horiz-adv-x="1025" />

    
    <glyph glyph-name="attachment" unicode="&#59071;" d="M469.241525 758.296639 98.37183 368.853664c-93.973219-98.68002-92.76401-256.884637 2.832067-354.156814l3.698274-3.763802c95.713824-97.390948 251.888077-98.186507 348.461964-1.854256l488.62777 487.41037c77.219383 77.026893 78.824836 203.233046 3.624554 281.953445l-17.872942-17.074312-17.872942-17.074312 4.126258-4.319772 17.872942 17.074312 17.872942 17.074312c-75.82178 79.370566-198.536484 78.552482-273.528917-1.867567l-463.226199-496.749228c-37.300142-40.000128-35.153055-102.567712 4.864479-139.885261l11.217688-10.461036c39.959173-37.262259 102.585118-35.092646 139.817684 4.834787L729.170173 516.350489c9.310189 9.983906 8.764458 25.624778-1.220471 34.934967s-25.624778 8.764458-34.934967-1.219447L332.734062 163.711072c-18.608092-19.954501-49.952293-21.040843-69.94775-2.394868l-11.217688 10.461036c-20.040507 18.687955-21.113539 49.972771-2.42456 70.014302l463.226199 496.749228c55.617451 59.642344 145.451101 60.241317 201.627594 1.434463 22.765066-23.830931 58.511975 10.316669 35.745884 34.147599l-4.126258 4.319772c-22.765066 23.830931-58.511975-10.316669-35.745884-34.147599 56.617787-59.267602 55.403459-154.755147-2.791111-212.80535l-488.62777-487.41037c-77.13952-76.94703-201.812917-76.312221-278.289984 1.505111l-3.698274 3.763802c-76.901979 78.249412-77.878766 206.039516-2.291455 285.413154l370.869695 389.442974c9.414626 9.885613 9.031692 25.531604-0.85392 34.94623S478.656151 768.182252 469.241525 758.296639L469.241525 758.296639z"  horiz-adv-x="1025" />

    
    <glyph glyph-name="browse" unicode="&#59072;" d="M113.917481 383.881229M627.718496 624.709297M529.320044 697.023245 529.320044 697.023245 529.320044 697.023245ZM1004.305566 420.262947c-44.22775 68.45083-92.719983 127.431744-144.127218 175.301454-43.802838 40.78852-90.242181 74.027933-138.026909 98.794695-86.977011 45.079623-158.148303 51.810645-192.831395 51.810645l0-49.146496c57.263858 0 252.065209-22.310461 433.706561-303.433535 3.597933-5.567888 3.865167-12.656247 0.717744-18.491369-27.467772-50.911674-169.786808-288.038396-450.804422-315.148831-0.212968-0.020478-0.422865-0.030717-0.635833-0.030717-0.024573 0-0.049146 0-0.07372 0-10.905403 0.111604-258.756299 6.051162-454.244677 314.51607-4.044347 6.381877-4.130353 14.502312-0.262115 20.992721 32.008703 53.706881 188.301726 291.144864 454.879485 300.801126 0 0 5.91089 0.793511 16.710832 0.794535 0.002048 0 0.004096 0 0.006143 0l-0.002048 49.146496c-9.636809 0-16.5337-0.511943-20.355864-0.896924-67.372678-2.688723-133.33649-18.831299-196.103732-47.993601-51.694946-24.018302-101.53666-57.005839-148.140848-98.048283C83.521398 527.723807 33.3203 450.480874 15.505719 420.589566c-6.538532-10.971955-9.914282-23.518646-9.761723-36.285472 0.153583-12.833379 3.863119-25.34321 10.729294-36.17694 47.26357-74.577759 101.53666-138.555234 161.311085-190.155983 48.724655-42.061209 101.256115-76.08799 156.135345-101.136321 40.240741-18.367479 80.909466-31.60734 120.873758-39.352009 30.959221-5.999968 51.404163-6.651159 56.933143-6.707473l0.577471-0.003072c1.794871 0 3.609196 0.088054 5.393828 0.261091 70.770954 6.827267 138.90745 26.524773 202.478442 58.541667 52.118835 26.248324 101.488537 60.921177 146.738125 103.055082 78.782856 73.357288 124.209577 149.710464 140.082871 179.132833C1018.665557 373.389476 1017.633481 399.636777 1004.305566 420.262947zM513.659718 462.383541c44.080311 0 79.814933-35.734622 79.814933-79.814933s-35.734622-79.814933-79.814933-79.814933-79.814933 35.734622-79.814933 79.814933S469.579407 462.383541 513.659718 462.383541M513.659718 511.530037c-34.446574 0-66.832067-13.413922-91.189275-37.772154-24.357208-24.357208-37.772154-56.742701-37.772154-91.189275s13.413922-66.832067 37.772154-91.189275 56.742701-37.772154 91.189275-37.772154 66.832067 13.413922 91.189275 37.772154c24.357208 24.357208 37.772154 56.742701 37.772154 91.189275s-13.413922 66.832067-37.772154 91.189275C580.491785 498.116115 548.107316 511.530037 513.659718 511.530037L513.659718 511.530037z"  horiz-adv-x="1025" />

    
    <glyph glyph-name="fenxiang" unicode="&#58916;" d="M972.8 346.0864v-294.7584A128.0768 128.0768 0 0 0 844.8-76.8H179.2a128 128 0 0 0-128 128V716.8c0 70.7328 57.1904 128 127.872 128h202.3168a25.6 25.6 0 0 1 0 51.2H179.072A179.072 179.072 0 0 1 0 716.8v-665.6a179.2 179.2 0 0 1 179.2-179.2h665.6c98.944 0 179.2 80.2816 179.2 179.328V346.0864a25.6 25.6 0 0 1-51.2 0zM960 768c-353.4592 0-640-286.5408-640-640a25.6 25.6 0 0 1 51.2 0c0 325.1968 263.6032 588.8 588.8 588.8a25.6 25.6 0 0 1 0 51.2zM720.1024 833.8432l256-102.4a25.6 25.6 0 0 1 18.9952 47.5136l-256 102.4a25.6 25.6 0 0 1-18.9952-47.5136zM808.8064 547.5328l194.6368 189.312a25.6 25.6 0 1 1-35.6864 36.7104L773.12 584.2432a25.6 25.6 0 1 1 35.6864-36.7104z"  horiz-adv-x="1024" />

    
    <glyph glyph-name="guanbi" unicode="&#58917;" d="M512 439.689846L94.247385 857.442462a39.542154 39.542154 0 0 1-55.689847 0 39.266462 39.266462 0 0 1 0-55.689847L456.310154 384 38.557538-33.752615a39.542154 39.542154 0 0 1 0-55.689847 39.266462 39.266462 0 0 1 55.689847 0L512 328.310154l417.752615-417.752616c15.163077-15.163077 40.290462-15.36 55.689847 0a39.266462 39.266462 0 0 1 0 55.689847L567.689846 384 985.442462 801.752615a39.542154 39.542154 0 0 1 0 55.689847 39.266462 39.266462 0 0 1-55.689847 0L512 439.689846z"  horiz-adv-x="1024" />

    
    <glyph glyph-name="bofang" unicode="&#58918;" d="M512 896C230.4 896 0 665.6 0 384s230.4-512 512-512 512 230.4 512 512S793.6 896 512 896z m0-981.333333C253.866667-85.333333 42.666667 125.866667 42.666667 384S253.866667 853.333333 512 853.333333s469.333333-211.2 469.333333-469.333333-211.2-469.333333-469.333333-469.333333zM672 454.4l-170.666667 113.066667c-57.6 38.4-106.666667 12.8-106.666666-57.6v-256c0-70.4 46.933333-96 106.666666-57.6l170.666667 113.066666c57.6 42.666667 57.6 106.666667 0 145.066667z"  horiz-adv-x="1024" />

    
    <glyph glyph-name="kefu" unicode="&#58919;" d="M55.351351 342.597189v-110.924108a83.027027 83.027027 0 0 1 166.054054 0v110.924108a83.027027 83.027027 0 0 1-166.054054 0z m763.101406-211.552865A137.852541 137.852541 0 0 0 774.918919 231.673081v110.924108A138.378378 138.378378 0 0 0 912.328649 480.864865C898.131027 681.928649 730.499459 840.648649 525.837838 840.648649 321.148541 840.648649 153.544649 681.928649 139.347027 480.864865A138.461405 138.461405 0 0 0 276.756757 342.597189v-110.924108a138.378378 138.378378 0 0 0-276.756757 0v110.924108a138.378378 138.378378 0 0 0 83.303784 126.865297C91.883243 706.476973 286.72 896 525.837838 896s433.954595-189.523027 442.534054-426.537514A138.461405 138.461405 0 0 0 1051.675676 342.597189v-110.924108a138.378378 138.378378 0 0 0-184.790487-130.269405 470.763243 470.763243 0 0 0-188.858811-121.21946A96.809514 96.809514 0 0 0 580.912432-114.162162h-82.528864c-53.690811 0-97.113946 43.174054-97.113946 96.864865 0 53.607784 43.284757 96.864865 97.141621 96.864865h82.473514c34.954378 0 65.536-18.265946 82.639567-45.803244a415.273514 415.273514 0 0 1 154.900757 97.28zM830.27027 342.597189v-110.924108a83.027027 83.027027 0 0 1 166.054054 0v110.924108a83.027027 83.027027 0 0 1-166.054054 0zM498.438919-58.810811h82.473513c23.302919 0 41.79027 18.487351 41.790271 41.513514 0 23.053838-18.570378 41.513514-41.790271 41.513513h-82.473513c-23.302919 0-41.79027-18.487351-41.79027-41.513513 0-23.053838 18.570378-41.513514 41.79027-41.513514z"  horiz-adv-x="1051" />

    
    <glyph glyph-name="duigou" unicode="&#58922;" d="M512 896C228.430769 896 0 667.569231 0 384s228.430769-512 512-512 512 228.430769 512 512S795.569231 896 512 896z m0-945.230769C271.753846-49.230769 78.769231 143.753846 78.769231 384S271.753846 817.230769 512 817.230769s433.230769-192.984615 433.230769-433.230769-192.984615-433.230769-433.230769-433.230769zM716.8 565.169231l-208.738462-248.123077c-15.753846-15.753846-43.323077-19.692308-59.076923-7.876923L299.323077 423.384615c-15.753846 11.815385-43.323077 7.876923-55.138462-7.876923-11.815385-15.753846-7.876923-43.323077 7.876923-55.138461l149.661539-114.215385c19.692308-15.753846 47.261538-23.630769 74.830769-23.630769 35.446154 0 70.892308 15.753846 94.523077 43.323077l208.738462 248.123077c15.753846 15.753846 11.815385 43.323077-3.938462 55.138461-19.692308 15.753846-43.323077 15.753846-59.076923-3.938461z"  horiz-adv-x="1024" />

    
    <glyph glyph-name="zanting" unicode="&#58921;" d="M512-128C228.266667-128 0 100.266667 0 384S228.266667 896 512 896s512-228.266667 512-512-228.266667-512-512-512z m0 42.666667c260.266667 0 469.333333 209.066667 469.333333 469.333333S772.266667 853.333333 512 853.333333 42.666667 644.266667 42.666667 384s209.066667-469.333333 469.333333-469.333333z m-106.666667 682.666666c12.8 0 21.333333-8.533333 21.333334-21.333333v-384c0-12.8-8.533333-21.333333-21.333334-21.333333s-21.333333 8.533333-21.333333 21.333333V576c0 12.8 8.533333 21.333333 21.333333 21.333333z m213.333334 0c12.8 0 21.333333-8.533333 21.333333-21.333333v-384c0-12.8-8.533333-21.333333-21.333333-21.333333s-21.333333 8.533333-21.333334 21.333333V576c0 12.8 8.533333 21.333333 21.333334 21.333333z"  horiz-adv-x="1024" />

    
    <glyph glyph-name="shoucang" unicode="&#58920;" d="M142.31918 355.732873l350.13559-373.653781c54.296613-63.852817 139.806023-63.883844 195.033436 1.054906l362.204951 388.670672c42.661625 48.866952 65.466202 112.130263 65.466203 182.902021a279.239726 279.239726 0 0 1-501.018122 169.653647 30.99561 30.99561 0 0 0-25.534922-12.131415 30.99561 30.99561 0 0 0-25.503895 12.131415A279.239726 279.239726 0 0 1 62.053272 554.706691c0-72.850542 28.792718-144.242832 77.411458-195.498835 1.054906-1.116959 1.985705-2.264944 2.85445-3.474983z m-54.606879-31.926409A349.732244 349.732244 0 0 0 0 554.706691C0 743.193506 152.806184 895.99969 341.292999 895.99969c95.065613 0 183.708713-39.155615 247.313317-106.111096A340.486306 340.486306 0 0 0 835.95066 895.99969c188.486815 0 341.292999-152.806184 341.292999-341.292999 0-80.793361-25.069522-154.636755-72.198982-213.463257-1.147986-1.923651-2.482131-3.754223-4.095516-5.491715l-5.181449-5.553768c-2.699317-3.071637-5.491715-6.112247-8.315138-9.090804-0.620533-0.620533-1.210039-1.241065-1.861598-1.799545L733.810974-58.069375c-79.055869-93.048882-209.553901-93.017855-287.616918-1.147985L90.783938 319.959161a31.243823 31.243823 0 0 0-3.102664 3.847303z"  horiz-adv-x="1179" />

    
    <glyph glyph-name="saoyisao" unicode="&#58926;" d="M665.6 768a21.333333 21.333333 0 1 0 0 42.666667h123.648A149.482667 149.482667 0 0 0 938.666667 661.184v-133.504a21.333333 21.333333 0 1 0-42.666667 0v133.504A106.816 106.816 0 0 1 789.248 768h-123.669333zM896 220.032a21.333333 21.333333 0 1 0 42.666667 0v-113.258667A149.397333 149.397333 0 0 0 789.333333-42.666667H234.666667c-82.389333 0-149.333333 66.986667-149.333334 149.205334v122.752a21.333333 21.333333 0 0 0 42.666667 0v-122.752A106.773333 106.773333 0 0 1 234.666667 0h554.666666c58.88 0 106.666667 47.808 106.666667 106.773333v113.28zM128 532.949333a21.333333 21.333333 0 1 0-42.666667 0v128.213334C85.333333 743.701333 152.170667 810.666667 234.624 810.666667h128.725333a21.333333 21.333333 0 0 0 0-42.666667h-128.725333A106.730667 106.730667 0 0 1 128 661.141333v-128.192zM106.666667 362.666667a21.333333 21.333333 0 0 0 0 42.666666h810.666666a21.333333 21.333333 0 0 0 0-42.666666H106.666667z"  horiz-adv-x="1024" />

    
    <glyph glyph-name="wode" unicode="&#58927;" d="M512 332.8c-127.9744 0-230.4 115.2512-230.4 256s102.4256 256 230.4 256 230.4-115.2512 230.4-256-102.4256-256-230.4-256z m0 51.2c98.2528 0 179.2 91.0592 179.2 204.8s-80.9472 204.8-179.2 204.8-179.2-91.0592-179.2-204.8 80.9472-204.8 179.2-204.8zM128 102.4a179.2 179.2 0 0 0 179.3792 179.2h409.2416C815.6416 281.6 896 201.2672 896 102.4a179.2 179.2 0 0 0-179.3792-179.2H307.3792C208.3584-76.8 128 3.5328 128 102.4z m51.2 0c0-70.5792 57.4464-128 128.1792-128h409.2416A128 128 0 0 1 844.8 102.4c0 70.5792-57.4464 128-128.1792 128H307.3792A128 128 0 0 1 179.2 102.4z"  horiz-adv-x="1024" />

    
    <glyph glyph-name="shouye" unicode="&#58928;" d="M362.666667 0.085333V256.149333c0 36.266667 33.109333 63.850667 72.533333 63.850667h153.6c39.253333 0 72.533333-27.648 72.533333-63.850667v-256.064h59.904c61.269333 0 110.762667 47.957333 110.762667 106.730667V481.834667L557.162667 756.672a63.808 63.808 0 0 1-90.325334 0L192 481.834667v-375.018667c0-58.88 49.386667-106.730667 110.762667-106.730667H362.666667z m42.666666 0h213.333334V256.149333c0 10.709333-12.586667 21.184-29.866667 21.184h-153.6c-17.408 0-29.866667-10.389333-29.866667-21.184v-256.064z m469.333334 439.082667v-332.352c0-82.645333-68.885333-149.397333-153.429334-149.397333H302.762667C218.133333-42.581333 149.333333 24.064 149.333333 106.816V439.168l-27.584-27.584a21.333333 21.333333 0 1 0-30.165333 30.165333L436.672 786.837333a106.474667 106.474667 0 0 0 150.656 0l345.088-345.088a21.333333 21.333333 0 0 0-30.165333-30.165333L874.666667 439.168z"  horiz-adv-x="1024" />

    
    <glyph glyph-name="sousuo" unicode="&#58930;" d="M474.453333 11.946667c-225.28 0-409.6 184.32-409.6 409.6s184.32 409.6 409.6 409.6 409.6-184.32 409.6-409.6-184.32-409.6-409.6-409.6z m0 68.266666c187.733333 0 341.333333 153.6 341.333334 341.333334s-153.6 341.333333-341.333334 341.333333-341.333333-153.6-341.333333-341.333333 153.6-341.333333 341.333333-341.333334z m252.586667-54.613333c-13.653333 13.653333-10.24 37.546667 3.413333 47.786667s37.546667 10.24 47.786667-3.413334l64.853333-78.506666c13.653333-13.653333 10.24-37.546667-3.413333-47.786667s-37.546667-10.24-47.786667 3.413333l-64.853333 78.506667z"  horiz-adv-x="1024" />

    


  </font>
</defs>
</svg>
