<?xml version="1.0" standalone="no"?>
<!DOCTYPE svg PUBLIC "-//W3C//DTD SVG 1.1//EN" "http://www.w3.org/Graphics/SVG/1.1/DTD/svg11.dtd" >
<svg xmlns="http://www.w3.org/2000/svg">
<metadata>Generated by IcoMoon</metadata>
<defs>
<font id="icomoon" horiz-adv-x="1024">
<font-face units-per-em="1024" ascent="960" descent="-64" />
<missing-glyph horiz-adv-x="1024" />
<glyph unicode="&#x20;" horiz-adv-x="512" d="" />
<glyph unicode="&#xe900;" glyph-name="icon" d="M864 512c17.673 0 32-14.327 32-32v-448c0-17.673-14.327-32-32-32s-32 14.327-32 32v448c0 17.673 14.327 32 32 32zM288 64h576c17.673 0 32-14.327 32-32s-14.327-32-32-32h-576c-17.673 0-32 14.327-32 32s14.327 32 32 32zM288 256h576c17.673 0 32-14.327 32-32s-14.327-32-32-32h-576c-17.673 0-32 14.327-32 32s14.327 32 32 32zM288 448h576c17.673 0 32-14.327 32-32s-14.327-32-32-32h-576c-17.673 0-32 14.327-32 32s14.327 32 32 32zM133.724 720.692h410.276c17.673 0 32-14.327 32-32s-14.327-32-32-32h-410.276c-17.673 0-32 14.327-32 32s14.327 32 32 32zM384.024 852.745c12.497 12.497 32.758 12.497 45.255 0l135.765-135.765c12.497-12.497 12.497-32.758 0-45.255s-32.758-12.497-45.255 0l-135.765 135.765c-12.497 12.497-12.497 32.758 0 45.255zM384.024 523.425c12.497-12.497 32.758-12.497 45.255 0l135.765 135.765c12.497 12.497 12.497 32.758 0 45.255s-32.758 12.497-45.255 0l-135.765-135.765c-12.497-12.497-12.497-32.758 0-45.255z" />
<glyph unicode="&#xe902;" glyph-name="icon2" d="M662.842 751.5l181.897-181.907c7.765-5.839 12.787-15.129 12.787-25.593 0-17.673-14.327-32-32-32h-640c-17.673 0-32 14.327-32 32s14.327 32 32 32l562.304 0.041-130.243 130.205c-12.497 12.497-12.497 32.758 0 45.255s32.758 12.497 45.255 0zM348.211 165.982l-181.897 181.907c-7.765 5.839-12.787 15.129-12.787 25.593 0 17.673 14.327 32 32 32h640c17.673 0 32-14.327 32-32s-14.327-32-32-32l-562.304-0.041 130.243-130.205c12.497-12.497 12.497-32.758 0-45.255s-32.758-12.497-45.255 0z" />
<glyph unicode="&#xe903;" glyph-name="icon3" d="M256 544h576c35.346 0 64-28.654 64-64v-435.2c0-35.346-28.654-64-64-64h-576c-35.346 0-64 28.654-64 64v435.2c0 35.346 28.654 64 64 64z" />
<glyph unicode="&#xe905;" glyph-name="icon5" d="M509.609 733.594c17.673 0 32-14.327 32-32v-251.008l218.924-0.047c17.673 0 32-14.327 32-32s-14.327-32-32-32h-249.622c-8.112 0-15.519 3.019-21.16 7.994-7.386 5.813-12.142 14.885-12.142 25.068v281.993c0 17.673 14.327 32 32 32z" />
<glyph unicode="&#xe906;" glyph-name="icon6" d="M416 719.61c15.464 0 28-12.536 28-28l-0.032-117.024 105.899-0.043c14.433 0 26.133-11.7 26.133-26.133s-11.7-26.133-26.133-26.133l-105.899 0.021 0.032-117.088c0-15.464-12.536-28-28-28s-28 12.536-28 28l-0.032 117.088-105.835-0.021c-14.433 0-26.133 11.7-26.133 26.133s11.7 26.133 26.133 26.133l105.835 0.043 0.032 117.024c0 15.464 12.536 28 28 28z" />
<glyph unicode="&#xe908;" d="M227.556 789.333h568.889c31.419 0 56.889-25.47 56.889-56.889v-568.889c0-31.419-25.47-56.889-56.889-56.889h-568.889c-31.419 0-56.889 25.47-56.889 56.889v568.889c0 31.419 25.47 56.889 56.889 56.889z" />
<glyph unicode="&#xe909;" d="M170.667 727.101v-558.203c0-34.482 27.78-62.232 62.232-62.232h558.203c34.482 0 62.232 27.78 62.232 62.232v558.203c0 34.482-27.78 62.232-62.232 62.232h-558.203c-34.482 0-62.232-27.78-62.232-62.232zM113.778 723.523c0 67.765 54.743 122.699 122.699 122.699h551.046c67.765 0 122.699-54.743 122.699-122.699v-551.046c0-67.765-54.743-122.699-122.699-122.699h-551.046c-67.765 0-122.699 54.743-122.699 122.699v551.046z" />
<glyph unicode="&#xe90a;" glyph-name="-1" d="M787.523 846.222c67.765 0 122.699-54.743 122.699-122.699v-551.046c0-67.765-54.743-122.699-122.699-122.699h-551.046c-67.765 0-122.699 54.743-122.699 122.699v551.046c0 67.765 54.743 122.699 122.699 122.699h551.046zM755.513 663.059c-16.662 16.662-43.677 16.662-60.34 0v0l-299.475-299.475-58.86 117.719c-10.538 21.076-36.167 29.619-57.243 19.081s-29.619-36.167-19.081-57.243v0l85.333-170.667c13.024-26.048 47.739-31.681 68.332-11.089v0l341.333 341.333c16.662 16.662 16.662 43.677 0 60.34z" />
<glyph unicode="&#xe90b;" glyph-name="uniE90B" d="M231.619 415.946l0.039-40.981c0-14.138 11.462-25.6 25.6-25.6v0h76.8c14.138 0 25.6 11.462 25.6 25.6v0l-0.039 40.981h307.392l0.051-40.981c0-12.371 8.775-22.693 20.441-25.080l5.159-0.52h76.8c14.138 0 25.6 11.462 25.6 25.6v0l-0.051 40.981 148.653-0.001v-313.545c0-21.208-17.192-38.4-38.4-38.4h-778.125c-21.208 0-38.4 17.192-38.4 38.4v313.545l142.88 0.001zM903.847 694.154c21.208 0 38.4-17.192 38.4-38.4v-160.604l-147.236 0.028 0.051 42.848c0 12.371-8.775 22.693-20.441 25.080l-5.159 0.52h-76.8c-14.138 0-25.6-11.462-25.6-25.6v0l-0.051-42.848h-307.392l0.039 42.848c0 12.371-8.775 22.693-20.441 25.080l-5.159 0.52h-76.8c-14.138 0-25.6-11.462-25.6-25.6v0l-0.039-42.848-144.064-0.028v160.604c0 21.208 17.192 38.4 38.4 38.4h777.892z" />
<glyph unicode="&#xe90c;" glyph-name="1" d="M252.641 381.721l0.052-43.131c0-14.138 11.462-25.6 25.6-25.6v0h67.657c14.138 0 25.6 11.462 25.6 25.6v0l-0.061 43.131h285.504l0.004-43.131c0-12.371 8.775-22.693 20.441-25.080l5.159-0.52h67.657c14.138 0 25.6 11.462 25.6 25.6v0l-0.013 43.131 132.367-0.058v-261.866c0-21.208-17.192-38.4-38.4-38.4h-717.059c-21.208 0-38.4 17.192-38.4 38.4v261.866l138.292 0.058zM868.492 649.689c21.208 0 38.4-17.192 38.4-38.4v-156.079l-131.051 0.047 0.013 37.938c0 12.371-8.775 22.693-20.441 25.080l-5.159 0.52h-67.657c-14.138 0-25.6-11.462-25.6-25.6v0l-0.004-37.938h-285.504l0.061 37.938c0 12.371-8.775 22.693-20.441 25.080l-5.159 0.52h-67.657c-14.138 0-25.6-11.462-25.6-25.6v0l-0.052-37.938-139.392-0.047v156.079c0 21.208 17.192 38.4 38.4 38.4h716.843z" />
<glyph unicode="&#xe90d;" glyph-name="2" d="M512 903.111c251.351 0 455.111-203.76 455.111-455.111s-203.76-455.111-455.111-455.111c-251.351 0-455.111 203.76-455.111 455.111s203.76 455.111 455.111 455.111zM512 846.222c-219.932 0-398.222-178.29-398.222-398.222s178.29-398.222 398.222-398.222c219.932 0 398.222 178.29 398.222 398.222s-178.29 398.222-398.222 398.222zM283.974 504.889c15.985 0 30.090-4.781 41.374-16.254 10.343-10.517 15.985-23.903 15.985-40.157 0-17.21-5.642-30.596-16.926-41.113s-24.448-16.254-40.433-16.254c-15.985 0-29.15 5.737-40.433 16.254-11.284 11.473-15.985 24.859-15.985 41.113s4.702 29.64 15.985 40.157c11.284 11.473 24.448 16.254 40.433 16.254zM511.53 504.889c15.985 0 30.090-4.781 41.374-16.254 10.343-10.517 15.985-23.903 15.985-40.157 0-17.21-5.642-30.596-16.926-41.113s-24.448-16.254-40.433-16.254c-15.985 0-29.15 5.737-40.433 16.254-11.284 11.473-15.985 24.859-15.985 41.113s4.702 29.64 15.985 40.157c11.284 11.473 24.448 16.254 40.433 16.254zM739.085 504.889c15.985 0 30.090-4.781 41.374-16.254 10.343-10.517 15.985-23.903 15.985-40.157 0-17.21-5.642-30.596-16.926-41.113s-24.448-16.254-40.433-16.254c-15.985 0-29.15 5.737-40.433 16.254-11.284 11.473-15.985 24.859-15.985 41.113s4.702 29.64 15.985 40.157c11.284 11.473 24.448 16.254 40.433 16.254z" />
<glyph unicode="&#xe90e;" glyph-name="3" d="M670.395 419.764l-320.824 321.325c-10.79 10.807-11.138 29.065-0.109 40.112 10.707 10.724 28.96 10.998 40.050-0.109 226.62-226.010 340.543-339.628 341.767-340.855 10.842-10.858 11.202-29.287 0.075-40.431l-341.272-341.805c-10.826-10.843-29.2-11.111-40.368 0.075-10.842 10.858-11.202 29.287-0.075 40.431l320.756 321.257z" />
<glyph unicode="&#xe90f;" glyph-name="4" d="M352.487 137.997l189.463 392.239 101.813-37.138-160.385-355.101h-130.891zM570.828 922.38c6.058-0.043 12.115-0.202 18.167-0.474-29.059-19.895-57.394-43.26-84.193-69.889-59.879-59.541-103.445-126.843-128.707-192.936-59.744 22.404-110.947 41.746-147.508 55.778-21.646 8.303-11.749 38.967-0.903 51.598 83.063 96.179 206.121 156.749 343.143 155.923zM622.031 878.453c-28.335-16.337-54.547-38.967-79.809-64.071-54.547-54.23-92.057-116.539-110.269-176.25 107.557-40.244 233.87-87.221 350.51-130.471 20.607 50.898 31.905 111.727 30.368 176.826-1.131 47.328-7.276 92.656-21.964 132.143-31.138 83.56-93.322 105.354-168.838 61.822zM845.868 826.324c105.298-82.871 172.634-211.771 171.776-356.172-3.208-20.81-12.97-40.582-35.114-36.605-43.61 16.11-93.187 34.481-145.834 54.005 20.155 58.728 30.866 126.403 29.149 198.202-1.175 49.633-8.227 96.995-19.976 140.571zM80.584 141.008h678.4c24.742 0 44.8-20.058 44.8-44.8s-20.058-44.8-44.8-44.8h-678.4c-24.742 0-44.8 20.058-44.8 44.8s20.058 44.8 44.8 44.8zM104.163 299.792h195.2c21.208 0 38.4-17.192 38.4-38.4v-4.8c0-21.208-17.192-38.4-38.4-38.4h-195.2c-21.208 0-38.4 17.192-38.4 38.4v4.8c0 21.208 17.192 38.4 38.4 38.4zM201.763 484c75.111 0 136-60.889 136-136v0h-272c0 75.111 60.889 136 136 136z" />
<glyph unicode="&#xe910;" glyph-name="5" d="M401.271 111.097l180.352 359.203 89.015-32.817-158.638-326.386h-110.729zM606.052 802.039c5.125-0.037 10.249-0.171 15.369-0.401-24.583-16.831-48.554-36.596-71.224-59.124-50.656-50.369-87.511-107.305-108.881-163.218-50.541 18.953-93.857 35.316-124.786 47.187-18.312 7.024-9.94 32.965-0.764 43.65 70.268 81.364 174.371 132.604 290.288 131.906zM649.368 764.879c-23.97-13.821-46.145-32.965-67.515-54.202-46.145-45.877-77.877-98.588-93.284-149.101 90.989-34.045 197.846-73.786 296.52-110.374 17.433 43.058 26.99 94.517 25.691 149.589-0.957 40.038-6.156 78.384-18.581 111.788-26.341 70.689-78.947 89.126-142.831 52.3zM838.726 720.78c89.079-70.106 146.043-179.151 145.316-301.309-2.714-17.605-10.972-34.331-29.705-30.967-36.893 13.629-78.833 29.17-123.371 45.686 17.051 49.682 26.112 106.933 24.659 167.672-0.994 41.988-6.959 82.054-16.899 118.918zM124.724 126.304h627.2c21.208 0 38.4-17.192 38.4-38.4s-17.192-38.4-38.4-38.4h-627.2c-21.208 0-38.4 17.192-38.4 38.4s17.192 38.4 38.4 38.4zM163.2 274.628h185.6c19.44 0 35.2-15.76 35.2-35.2s-15.76-35.2-35.2-35.2h-185.6c-19.44 0-35.2 15.76-35.2 35.2s15.76 35.2 35.2 35.2zM256 448c70.692 0 128-57.308 128-128v0h-256c0 70.692 57.308 128 128 128z" />
<glyph unicode="&#xe911;" glyph-name="6" d="M353.605 419.764l320.824 321.325c10.79 10.807 11.138 29.065 0.109 40.112-10.707 10.724-28.96 10.998-40.050-0.109-226.62-226.010-340.543-339.628-341.767-340.855-10.842-10.858-11.202-29.287-0.075-40.431l341.272-341.805c10.826-10.843 29.2-11.111 40.368 0.075 10.842 10.858 11.202 29.287 0.075 40.431l-320.756 321.257z" />
<glyph unicode="&#xe912;" glyph-name="7" d="M625.778 846.222h56.889v-170.667h-56.889v170.667zM284.444 846.222h56.889v-170.667h-56.889v170.667zM910.222 163.47c0-31.372-25.295-56.804-56.938-56.804v0h-739.456c-31.446 0-56.938 25.457-56.938 56.804v0 569.059c0 31.372 25.419 56.804 56.661 56.804v0h110.7v-56.889h-110.472v-170.667l739.453 2.815-0.011 19.764c-0.002 3.949-0.004 7.819-0.007 11.61l-0.044 59.709c-0.003 2.843-0.005 5.608-0.008 8.293l-0.051 39.806c-0.003 1.738-0.006 3.396-0.009 4.976l-0.047 17.771c-0.003 0.79-0.007 1.501-0.010 2.132l-0.041 3.791h-111.79v56.889h111.79c31.601 0 57.218-25.457 57.218-56.804v0zM853.255 509.326l-739.478-4.437 0.050-341.333 739.506-0.005c-0.001 7.74-0.002 15.401-0.003 22.983l-0.052 255.659c-0.002 5.529-0.003 10.978-0.005 16.349l-0.018 50.785zM568.889 789.333v-56.889h-170.667v56.889h170.667z" />
<glyph unicode="&#xe913;" glyph-name="8" d="M864 165.333c0-22.4-9.6-69.333-32-69.333h-624c-22.4 0-48 25.6-48 48v608c0 22.4 9.6 48 32 48h634.667c22.4 0 37.333-14.933 37.333-37.333v-597.333zM814.545 864h-605.091c-60.509 0-113.455-52.945-113.455-113.455v-605.091c0-60.509 52.945-113.455 113.455-113.455h605.091c60.509 0 113.455 52.945 113.455 113.455v605.091c0 60.509-52.945 113.455-113.455 113.455zM550.4 480h-192c-23.040 0-38.4-12.8-38.4-32s15.36-32 38.4-32h307.2c23.040 0 38.4 12.8 38.4 32s-15.36 32-38.4 32h-115.2z" />
<glyph unicode="&#xe914;" glyph-name="9" d="M860.65 14.021l-4.078 4.111c-8.302 8.367-21.268 21.436-41.048 41.373-68.509 69.051-117.637 118.567-131.094 132.132-64.657-48.091-144.7-76.525-231.362-76.525-214.876 0-389.067 174.808-389.067 390.444s174.191 390.444 389.067 390.444c214.876 0 389.067-174.808 389.067-390.444 0-101.253-38.406-193.504-101.396-262.882l175.902-177.275c13.991-14.102 14.705-36.603 2.572-51.802l-2.251-2.492-2.429-2.233c-14.069-11.486-33.99-11.794-48.067-0.387l-2.848 2.555-0.292 0.285 0.036-0.029-0.994 0.995c-0.538 0.542-1.11 1.118-1.716 1.73zM453.067 838.156c-183.042 0-331.427-148.91-331.427-332.601s148.385-332.601 331.427-332.601c183.042 0 331.427 148.91 331.427 332.601s-148.385 332.601-331.427 332.601z" />
<glyph unicode="&#xe915;" glyph-name="10" d="M219.639 538.868c13.998 13.998 37.094 13.599 50.659 0.034l233.565-233.606 233.932 233.884c12.751 12.751 32.605 14.012 46.698 3.546l4.042-3.492c13.996-13.996 14.297-36.388-0.055-50.74l-259.558-259.558c-12.751-12.751-32.605-14.012-46.698-3.546l-4.042 3.492c-1.458 1.458-2.768 3.008-3.928 4.63l-254.649 254.698c-13.98 13.98-14.062 36.563 0.034 50.659z" />
<glyph unicode="&#xe916;" glyph-name="11" d="M511.108 676.643c-16.381-12.453-2.964-37.267 17.662-32.806 60.296 13.048 116.587 36.040 116.587 76.485 0 87.061-284.904 52.553-284.904 123.109 0 25.167 25.592 46.634 58.494 63.827 20.246 10.576 9.612 39.107-13.237 35.296-86.449-14.442-176.703-45.073-176.703-110.108 0-124.81 303.948-66.512 303.948-121.938 0-12.509-8.691-23.865-21.848-33.865zM269.067 25.44h364c22.975 0 41.6-18.625 41.6-41.6v-6.24c0-22.975-18.625-41.6-41.6-41.6h-364c-22.975 0-41.6 18.625-41.6 41.6v6.24c0 22.975 18.625 41.6 41.6 41.6zM155.981 613.085h594c21.208 0 38.4-17.192 38.4-38.4v-222.467c0-144.073-116.794-260.867-260.867-260.867h-149.067c-144.073 0-260.867 116.794-260.867 260.867v222.467c0 21.208 17.192 38.4 38.4 38.4z" />
<glyph unicode="&#xe917;" glyph-name="12" d="M504.341 691.391c-14.066-10.184-2.545-30.476 15.166-26.828 51.775 10.67 100.111 29.473 100.111 62.548 0 71.197-245.688 29.223-245.688 86.922 0 20.581 21.975 38.137 50.227 52.197 17.384 8.649 8.254 31.981-11.366 28.865-74.232-11.81-151.731-36.86-151.731-90.045 0-102.068 262.041-40.638 262.041-85.965 0-10.23-7.463-19.517-18.76-27.694zM290.723 159.413h313.6c19.44 0 35.2-15.76 35.2-35.2s-15.76-35.2-35.2-35.2h-313.6c-19.44 0-35.2 15.76-35.2 35.2s15.76 35.2 35.2 35.2zM197.835 624.395h499.223c21.208 0 38.4-17.192 38.4-38.4v-164.268c0-111.93-90.738-202.668-202.668-202.668h-170.687c-111.93 0-202.668 90.738-202.668 202.668v164.268c0 21.208 17.192 38.4 38.4 38.4z" />
<glyph unicode="&#xe918;" glyph-name="13" d="M864 864c35.346 0 64-28.654 64-64v-704c0-35.346-28.654-64-64-64h-704c-35.346 0-64 28.654-64 64v704c0 35.346 28.654 64 64 64h704zM864 800h-704v-704h704v704zM512 640c17.673 0 32-14.327 32-32v-128h128c17.673 0 32-14.327 32-32s-14.327-32-32-32h-128v-128c0-17.673-14.327-32-32-32s-32 14.327-32 32v128h-128c-17.673 0-32 14.327-32 32s14.327 32 32 32h128v128c0 17.673 14.327 32 32 32z" />
</font>
</defs>
</svg>
